img image001 image001 image001 image001 image001 image001 image001 image001 image001 image001 image001 image001 image001 image001 image001 image001
Planets Sun Sun Sun
Статистика раздачи
Автор: mari | Размер: 5.36 ГБ | Добавлен: 14 май 2019
Раздают: 0    Качают: 0
Скачать торрент
Скачать торрент

СообщениеДобавлено: 14 май 2019 

Последняя неделя (1-2 серии из 8)

Перевод: Не требуется, cубтитры: отсутствуют
Формат: HDTV 1080p, MKV, H.264, AC3
Страна: Россия
Режиссер: Павел Мальков
Жанр: мелодрама
Всего серий: 8
Продолжительность: 2 x ~ 00:53:00
Год выпуска: 2019

В ролях: Евгений Сидихин, Светлана Антонова, Андрей Финягин, Олег Алмазов, Алексей Шильников, Мария Скуратова (II), Сергей Бледных, Валентина Панина, Надежда Мельникова, Галина Бокашевская, Платон Селивановский, Юрий Потапенко

Описание: Люба и Сергей были любящей и успешной парой кардиохирургов. Сергей занимался изобретением искусственного сердца и мечтал изменить жизни миллионов людей. Люба же оставалась на вторых ролях, но при этом была счастлива – она всегда чувствовала себя рядом с мужем в безопасности. Так было, пока в автокатастрофе не погибла их дочь. После смерти девочки супруги развелись.

Рейтинг и доп. информация:


Видео: 1920x1080, (16:9), 25 fps, AVC MPEG-4 (x264), ~ 7050 kbps , 0.136 bit/pixel
Аудио: 48 kHz, AC3, 2/0 (L,R) ch, ~192.00 kbps avg
Внимание! Раздача ведётся путём добавления новых серий. При каждом добавлении создаётся новый торрент.
Чтобы начать докачку новой серии, пользователям необходимо сделать следующее:
1. Остановить скачивание.
2. Удалить старый торрент у себя из клиента (старые серии удалять не надо).
3. Скачать новый торрент и запустить его у себя в клиенте вместо старого, при этом указать клиенту путь в старую папку куда и должно происходить скачивание новых серий. Ваш клиент при этом должен произвести хеширование (проверку) старой папки и будет докачивать только те серии, которых у вас ещё нет. Старые серии при этом не удаляются, а продолжают раздаваться! Eсли вы уже удалили старые серии, то предотвратить повторную закачку старых серий можно, отжав галочку в соответствующих местах при запуске нового торрента.


General
Unique ID : 238012862667533948471392807013098956472 (0xB30F9C24C53E62519DA136B73F87A6B8)
Complete name : E:Запись с твPoslednjaja nedelja 2019 HDTV 1080p.R.G.GeneralfilmPoslednjaja nedelja.s01.e02.2019.HDTV 1080p.by.White Smoke.R.G.Generalfilm.mkv
Format : Matroska
Format version : Version 4 / Version 2
File size : 2.65 GiB
Duration : 52 min 30 s
Overall bit rate mode : Constant
Overall bit rate : 7 218 kb/s
Movie name : Poslednjaja nedelja.s01.e02.2019.HDTV 1080p.by.White Smoke.R.G.Generalfilm.mkv
Encoded date : UTC 2019-05-14 08:22:12
Writing application : mkvmerge v6.8.0 (''Theme for Great Cities'') 64bit built on Mar 2 2014 21:34:26
Writing library : libebml v1.3.0 + libmatroska v1.4.1
Cover : Yes
Attachments : cover.jpg

Video
ID : 1
Format : AVC
Format/Info : Advanced Video Codec
Format profile :
Format settings : CABAC / 3 Ref Frames
Format settings, CABAC : Yes
Format settings, ReFrames : 3 frames
Format settings, GOP : M=3, N=33
Codec ID : V_MPEG4/ISO/AVC
Duration : 52 min 30 s
Bit rate mode : Constant
Bit rate : 7 050 kb/s
Width : 1 920 pixels
Height : 1 080 pixels
Display aspect ratio : 16:9
Frame rate mode : Constant
Frame rate : 25.000 FPS
Standard : PAL
Color space : YUV
Chroma subsampling : 4:2:0
Bit depth : 8 bits
Scan type : Progressive
Bits/(Pixel*Frame) : 0.136
Stream size : 2.52 GiB (95%)
Default : No
Forced : No
Color range : Limited
Color primaries : BT.709
Transfer characteristics : BT.709
Matrix coefficients : BT.709

Audio
ID : 2
Format : AC-3
Format/Info : Audio Coding 3
Commercial name : Dolby Digital
Codec ID : A_AC3
Duration : 52 min 30 s
Bit rate mode : Constant
Bit rate : 192 kb/s
Channel(s) : 2 channels
Channel layout : L R
Sampling rate : 48.0 kHz
Frame rate : 31.250 FPS (1536 SPF)
Bit depth : 16 bits
Compression mode : Lossy
Stream size : 72.1 MiB (3%)
Service kind : Complete Main
Default : Yes
Forced : No








Запись с



   Похожие торренты   Торрент   Размер 
В этой теме нет новых непрочитанных сообщений. Последняя неделя (1-6 серии из 8) (Павел Мальков) [2019, мелодрама, HDTV 1080p]

4 | 0

15.86 ГБ

В этой теме нет новых непрочитанных сообщений. Последняя неделя (1-8 серии из 8) (Павел Мальков) [2019, мелодрама, HDTV 1080p]

0 | 0

21.12 ГБ

В этой теме нет новых непрочитанных сообщений. Последняя неделя (1-8 серии из 8) (Павел Мальков) [2019, мелодрама, SATRip]

0 | 0

5.42 ГБ

В этой теме нет новых непрочитанных сообщений. Последняя неделя (1-6 серии из 8) (Павел Мальков) [2019, мелодрама, WEBRip]

0 | 0

4.02 ГБ

В этой теме нет новых непрочитанных сообщений. Последняя неделя (1-6 серии из 8) (Павел Мальков) [2019, мелодрама, WEBRip-AVC]

0 | 0

4 ГБ

В этой теме нет новых непрочитанных сообщений. Последняя неделя (1-8 серии из 8) (Павел Мальков) [2019, мелодрама, SATRip-AVC]

0 | 0

5.28 ГБ

В этой теме нет новых непрочитанных сообщений. Последняя неделя (1-2 серии из 8) (Павел Мальков) [2019, мелодрама, WEBRip-AVC]

5 | 0

1.34 ГБ




Вы не можете начинать темы
Вы не можете отвечать на сообщения
Вы не можете редактировать свои сообщения
Вы не можете удалять свои сообщения
Вы не можете добавлять вложения

Перейти:  
Для Мосгорсуда, Роскомнадзора и рекламодателей: mosgorsud-torrent[собачка]yandex.ru
Регистрация  Вход
ppkBB3cker v.2 © 2008-2014 @ PPK
[ Time : 0.084s | 18 Queries | GZIP : Off ]

cron