img image001 image001 image001 image001 image001 image001 image001 image001 image001 image001 image001 image001 image001 image001 image001 image001
Planets Sun Sun Sun
Статистика раздачи
Автор: mari | Размер: 8.18 ГБ | Добавлен: 04 янв 2019
Раздают: 5    Качают: 1
Скачать торрент
Скачать торрент

СообщениеДобавлено: 04 янв 2019 

Воин в костюме птицы: Джеб Корлис против всего мира
Wingsuit Warrior: Jeb Corliss vs. The World



Год выпуска: 2013
Страна: США (New Wave Entertainment, 3net)
Жанр: Документальный, Экстрим, Короткометражный
Продолжительность: 00:48:12
Перевод: Профессиональный многоголосый закадровый - студия "Позитив"
Режиссер: John Murphy


В фильме снимались: Jeb Corliss, Joby Ogwyn, Flaminia Bove, Nic Good, Leander Lacey, Jeff Nebelkopf


Описание: В жизни каждого бывают моменты, когда возникает мечта о полёте. Без всякого двигателя вингсьют, костюм-крыло, позволяет скользить и парить в воздухе на головокружительных скоростях. Это один из самых увлекательных видов спорта и один из самых опасных. В быстроразвивающемся мире вингсьют-полётов 2 человека стоят особняком, возвышаясь над уровнем остальных. Один из них - Джеб Корлис - отъявленный бунтарь, сделавший потрясающую карьеру в бейсджампинге, прыгавший с самых знаковых высот мира, и определивший черты нынешнего дня вингсьют-полёта. Джоби Огвин - один из самых лучших альпинистов мира, самый молодой покоритель 7 высочайших вершин Земли. С 2008 года стал также одним из самых лучших вингсьютеров. Им было суждено стать друзьями. В 2012 году Джеб получил серьёзную травму и теперь пытается вернутся в спорт, пройдя долгий и сложный период восстановления. Всё это время Джоби был рядом и поддерживал его. Сейчас пришло время снова расправить крылья.


Доп. инфо: Некоторые эпизоды в 2Д.




Качество: BDRip (by Ash61)
Контейнер: MKV
Формат 3D: Half OverUnder / Вертикальная анаморфная стереопара
Порядок ракурсов: левый ракурс первый


Видео: AVC / 1920х1080p / 23,976 fps / 23.0 Mbps
Аудио:
#1 - Русский / AC3 / 48 KHz / 5.1 ch / 640 Kbps (MVO - "Позитив") [перемонтаж - Ash61]
#2 - Английский / AC3 / 48 KHz / 5.1 ch / 640 Kbps (Original - BD 3D)
Субтитры: Отсутствуют
General
Unique ID : 176075198155380239941516225226346643310 (0x8476D98342DB27C8AEBBADEBCE70BF6E)
Complete name : D:WingsuitWarrior.JebCorlissVsTheWorld(2013)3D-halfOU[Ash61]MVO.mkv
Format : Matroska
Format version : Version 2
File size : 8.18 GiB
Duration : 48mn 12s
Overall bit rate : 24.3 Mbps
Movie name : Воин в костюме птицы: Джеб Корлис против всего мира / Wingsuit Warrior: Jeb Corliss vs. The World (2013) in 3D
Encoded date : UTC 2018-12-27 23:55:55
Writing application : mkvmerge v5.8.0 ('No Sleep / Pillow') built on Sep 2 2012 15:37:04
Writing library : libebml v1.2.3 + libmatroska v1.3.0
Video
ID : 1
Format : AVC
Format/Info : Advanced Video Codec
Format profile : High@L4.1
Format settings, CABAC : Yes
Format settings, ReFrames : 4 frames
Codec ID : V_MPEG4/ISO/AVC
Duration : 48mn 12s
Bit rate : 23.0 Mbps
Width : 1 920 pixels
Height : 1 080 pixels
Display aspect ratio : 16:9
Frame rate mode : Constant
Frame rate : 23.976 (24000/1001) fps
Color space : YUV
Chroma subsampling : 4:2:0
Bit depth : 8 bits
Scan type : Progressive
Bits/(Pixel*Frame) : 0.463
Stream size : 7.58 GiB (93%)
Title : BDRip by Ash61
Writing library : x264 core 146 r2538 121396c
Encoding settings : cabac=1 / ref=4 / deblock=1:-3:-3 / analyse=0x3:0x113 / me=umh / subme=10 / psy=1 / psy_rd=1.00:0.00 / mixed_ref=1 / me_range=32 / chroma_me=1 / trellis=2 / 8x8dct=1 / cqm=0 / deadzone=21,11 / fast_pskip=0 / chroma_qp_offset=-2 / threads=12 / lookahead_threads=3 / sliced_threads=0 / nr=0 / decimate=0 / interlaced=0 / bluray_compat=0 / constrained_intra=0 / bframes=12 / b_pyramid=2 / b_adapt=2 / b_bias=0 / direct=3 / weightb=1 / open_gop=0 / weightp=2 / keyint=250 / keyint_min=23 / scenecut=40 / intra_refresh=0 / rc_lookahead=60 / rc=2pass / mbtree=0 / bitrate=23000 / ratetol=1.0 / qcomp=0.70 / qpmin=0 / qpmax=69 / qpstep=4 / cplxblur=20.0 / qblur=0.5 / vbv_maxrate=40000 / vbv_bufsize=30000 / nal_hrd=none / filler=0 / frame-packing=4 / ip_ratio=1.40 / pb_ratio=1.30 / aq=1:0.70
Language : English
Default : Yes
Forced : No
Audio #1
ID : 2
Format : AC-3
Format/Info : Audio Coding 3
Mode extension : CM (complete main)
Format settings, Endianness : Big
Codec ID : A_AC3
Duration : 48mn 12s
Bit rate mode : Constant
Bit rate : 640 Kbps
Channel(s) : 6 channels
Channel positions : Front: L C R, Side: L R, LFE
Sampling rate : 48.0 KHz
Frame rate : 31.250 fps (1536 spf)
Compression mode : Lossy
Stream size : 221 MiB (3%)
Title : Многоголосый закадровый - студия "Позитив" [перемонтаж - Ash61]
Language : Russian
Default : Yes
Forced : No
Audio #2
ID : 3
Format : AC-3
Format/Info : Audio Coding 3
Mode extension : CM (complete main)
Format settings, Endianness : Big
Codec ID : A_AC3
Duration : 48mn 12s
Bit rate mode : Constant
Bit rate : 640 Kbps
Channel(s) : 6 channels
Channel positions : Front: L C R, Side: L R, LFE
Sampling rate : 48.0 KHz
Frame rate : 31.250 fps (1536 spf)
Compression mode : Lossy
Stream size : 221 MiB (3%)
Title : Original
Language : English
Default : No
Forced : No
Menu
00:00:00.000 : :1
00:02:13.550 : :2
00:08:18.873 : :3
00:11:15.717 : :4
00:14:10.892 : :5
00:17:20.414 : :6
00:23:58.354 : :7
00:28:09.229 : :8
00:32:47.465 : :9
00:36:30.105 : :10
00:41:12.637 : :11





















   Похожие торренты   Торрент   Размер 
В этой теме нет новых непрочитанных сообщений. Тайны невидимого мира / Mysteries of the Unseen World (2013) BDRip 1080p от Ash61 | 3D-Video | halfOU | L1

410 | 15

4.23 ГБ

В этой теме нет новых непрочитанных сообщений. Всемирное природное наследие / Weltnaturerbe / World Natural Heritage (2012) BDRip 1080p от Ash61 | 3D-Video | halfOU | P1

27 | 75

46.04 ГБ

В этой теме нет новых непрочитанных сообщений. Природа мира: Красивейшие места Европы / World's Nature: Europe's Most Beautiful Places (2013) BDRip 1080p | 3D-Video | halfOU

49 | 4

5.8 ГБ




Вы не можете начинать темы
Вы не можете отвечать на сообщения
Вы не можете редактировать свои сообщения
Вы не можете удалять свои сообщения
Вы не можете добавлять вложения

Перейти:  
Для Мосгорсуда, Роскомнадзора и рекламодателей: mosgorsud-torrent[собачка]yandex.ru
Регистрация  Вход
ppkBB3cker v.2 © 2008-2014 @ PPK
[ Time : 0.018s | 17 Queries | GZIP : Off ]

cron