img image001 image001 image001 image001 image001 image001 image001 image001 image001 image001 image001 image001 image001 image001 image001 image001
Planets Sun Sun Sun
Статистика раздачи
Автор: mari | Размер: 2.2 ГБ | Добавлен: 08 янв 2019
Раздают: 68    Качают: 0
Скачать торрент
Скачать торрент

СообщениеДобавлено: 08 янв 2019 

Смерть нации / Death of a Nation
«Can we save America a second time?»



Год выпуска: 2018
Страна: США
Производство: D'Souza Media
Жанр: Документальный, история


Режиссёр: Динеш Д'Соуза, Брюс Шоли
В ролях: Виктория Чилап, Динеш Д'Соуза, Карел Добры, Павел Криз, Джеймс МакВан, Анжела Примм, Ричард Спенсер, Марек Васут


Перевод: Профессиональный (многоголосый, закадровый) | [HDRezka Studio]
Субтитры: Английские (полные)
Реклама: Отсутствует

Описание: Фильм сравнивает Дональда Трампа, 45-го президента Соединенных Штатов Америки, с 16-м президентом США Авраамом Линкольном и, исследуя роль современной Демократической партии в делах страны, показывает, как демократы использовали обвинения в расизме, превосходстве белых и фашизме в качестве инструмента для дискредитации политического права. Создатель фильма пытается осветить тот факт, что приверженцы левых политических взглядов в настоящее время используют подобные обвинения в попытках отстранить Трампа от должности, и в то же время отвечает на множество вопросов о фашизме с помощью уникальных исторических воссозданий.




Качество: BDRip-AVC | BDRemux | Death.of.a.Nation.2018.1080p.BluRay.REMUX.AVC.DTS-HD.MA.5.1-FGT
Продолжительность: 01:48:06

Формат: MKV
Видео кодек: MPEG-4 AVC
Аудио кодек: AC3
Видео: 1024x428 (2.40:1), 23,976 fps, x264 ~1 841 kbps avg, 0.175 bit/pixel
Аудио #1: 48 kHz, AC3 Dolby Digital, 2 (L,R) ch, ~192.00 kbps avg | RUS (HDRezka Studio)
Аудио #2: 48 kHz, AC3 Dolby Digital, 3/2 (L,C,R,l,r) + LFE ch, ~448.00 kbps avg | ENG


Дата премьеры (мир): 3 августа 2018
Дата премьеры (РФ):
Цифровой релиз:


Релиз от:

Общее
Уникальный идентификатор : 83665452308130127505989048978193541696 (0x3EF1614718A533B6792BE712BA546A40)
Полное имя : F:OlLanDGroupDeath.of.a.Nation.2018.BDRip(AVC).OlLanDGroup.mkv
Формат : Matroska
Версия формата : Version 4 / Version 2
Размер файла : 2,20 Гбайт
Продолжительность : 1 ч. 48 м.
Общий поток : 2918 Кбит/сек
Название фильма : Death.of.a.Nation.2018 #TorpedoUK#
Дата кодирования : UTC 2019-01-07 16:41:23
Программа кодирования : mkvmerge v29.0.0 ('Like It Or Not') 64-bit
Библиотека кодирования : libebml v1.3.6 + libmatroska v1.4.9

Видео
Идентификатор : 1
Формат : AVC
Формат/Информация : Advanced Video Codec
Профиль формата : High@L4.1
Параметр CABAC формата : Да
Параметр ReFrames формата : 10 кадров
Идентификатор кодека : V_MPEG4/ISO/AVC
Продолжительность : 1 ч. 48 м.
Битрейт : 2276 Кбит/сек
Ширина : 1024 пикселя
Высота : 576 пикселей
Соотношение сторон : 16:9
Режим частоты кадров : Постоянный
Частота кадров : 23,976 (24000/1001) кадра/сек
Цветовое пространство : YUV
Субдискретизация насыщенности : 4:2:0
Битовая глубина : 8 бит
Тип развёртки : Прогрессивная
Бит/(Пиксели*Кадры) : 0.161
Размер потока : 1,72 Гбайт (78%)
Библиотека кодирования : x264 core 146 r2538 121396c
Настройки программы : cabac=1 / ref=10 / deblock=1:-3:-2 / analyse=0x3:0x113 / me=umh / subme=11 / psy=1 / psy_rd=0.95:0.07 / mixed_ref=1 / me_range=48 / chroma_me=1 / trellis=2 / 8x8dct=1 / cqm=0 / deadzone=21,11 / fast_pskip=1 / chroma_qp_offset=-3 / threads=6 / lookahead_threads=1 / sliced_threads=0 / nr=0 / decimate=1 / interlaced=0 / bluray_compat=0 / constrained_intra=0 / bframes=11 / b_pyramid=2 / b_adapt=2 / b_bias=0 / direct=3 / weightb=1 / open_gop=0 / weightp=2 / keyint=240 / keyint_min=23 / scenecut=40 / intra_refresh=0 / rc_lookahead=40 / rc=2pass / mbtree=0 / bitrate=2276 / ratetol=1.0 / qcomp=0.60 / qpmin=0 / qpmax=69 / qpstep=4 / cplxblur=20.0 / qblur=0.5 / vbv_maxrate=50000 / vbv_bufsize=62500 / nal_hrd=none / filler=0 / ip_ratio=1.40 / pb_ratio=1.30 / aq=1:1.00
Язык : English
Default : Да
Forced : Нет

Аудио #1
Идентификатор : 2
Формат : AC-3
Формат/Информация : Audio Coding 3
Расширение режима : CM (complete main)
Параметр Endianness формата : Big
Идентификатор кодека : A_AC3
Продолжительность : 1 ч. 48 м.
Вид битрейта : Постоянный
Битрейт : 192 Кбит/сек
Каналы : 2 канала
Расположение каналов : Front: L R
Частота : 48,0 КГц
Частота кадров : 31,250 кадров/сек (1536 spf)
Битовая глубина : 16 бит
Метод сжатия : С потерями
Размер потока : 148 Мбайт (7%)
Заголовок : MVO [HDRezka Studio]
Язык : Russian
Default : Да
Forced : Нет

Аудио #2
Идентификатор : 3
Формат : AC-3
Формат/Информация : Audio Coding 3
Расширение режима : CM (complete main)
Параметр Endianness формата : Big
Идентификатор кодека : A_AC3
Продолжительность : 1 ч. 48 м.
Вид битрейта : Постоянный
Битрейт : 448 Кбит/сек
Каналы : 6 каналов
Расположение каналов : Front: L C R, Side: L R, LFE
Частота : 48,0 КГц
Частота кадров : 31,250 кадров/сек (1536 spf)
Битовая глубина : 16 бит
Метод сжатия : С потерями
Размер потока : 346 Мбайт (15%)
Заголовок : [Original]
Язык : English
Default : Нет
Forced : Нет

Текст
Идентификатор : 4
Формат : UTF-8
Идентификатор кодека : S_TEXT/UTF8
Идентификатор кодека/Информация : UTF-8 Plain Text
Продолжительность : 1 ч. 42 м.
Битрейт : 87 бит/сек
Count of elements : 1842
Размер потока : 65,6 Кбайт (0%)
Заголовок : Full
Язык : English
Default : Нет
Forced : Нет

Меню
00:00:00.000 : en:Chapter 01
00:04:59.757 : en:Chapter 02
00:10:15.823 : en:Chapter 03
00:15:10.576 : en:Chapter 04
00:19:25.831 : en:Chapter 05
00:24:10.866 : en:Chapter 06
00:29:57.670 : en:Chapter 07
00:36:38.738 : en:Chapter 08
00:42:01.560 : en:Chapter 09
00:47:48.991 : en:Chapter 10
00:54:55.083 : en:Chapter 11
00:59:52.005 : en:Chapter 12
01:04:46.757 : en:Chapter 13
01:09:19.738 : en:Chapter 14
01:14:52.821 : en:Chapter 15
01:19:49.493 : en:Chapter 16
01:24:22.974 : en:Chapter 17
01:27:42.924 : en:Chapter 18
01:34:16.484 : en:Chapter 19
01:40:12.631 : en:Chapter 20









Вы не можете начинать темы
Вы не можете отвечать на сообщения
Вы не можете редактировать свои сообщения
Вы не можете удалять свои сообщения
Вы не можете добавлять вложения

Перейти:  
Для Мосгорсуда, Роскомнадзора и рекламодателей: mosgorsud-torrent[собачка]yandex.ru
Регистрация  Вход
ppkBB3cker v.2 © 2008-2014 @ PPK
[ Time : 0.032s | 16 Queries | GZIP : Off ]

cron