img image001 image001 image001 image001 image001 image001 image001 image001 image001 image001 image001 image001 image001 image001 image001 image001
Planets Sun Sun Sun
Статистика раздачи
Автор: mari | Размер: 1.47 ГБ | Добавлен: 14 май 2019
Раздают: 26    Качают: 1
Скачать торрент
Скачать торрент

СообщениеДобавлено: 14 май 2019 

Детектив Ди: Четыре Небесных царя / Di Renjie zhi Sidatianwang


Перевод: Профессиональный (многоголосый закадровый) HDRezka Studio, субтитры: отсутствуют
Формат: HDRip-AVC, MKV, H.264, AC3
Страна: Китай, Гонконг
Режиссер: Харк Цуй
Жанр: фэнтези, боевик, детектив, приключения
Продолжительность: 02:12:04
Год выпуска: 2018
В ролях: Марк Чао, Карина Лау, Уилльям Фэн, Кенни Лин, Сандра Ма, Этан Жуань

Описание: За заслуги перед отечеством император дарует детективу Ди могущественный артефакт — Жезл Укрощения Драконов. Но императрица недовольна этим жестом, она считает, что таким образом император поставил под угрозу их власть, и Жезл надо немедленно вернуть. Миссия поручается давнему товарищу Ди, а в помощь ему императрица приставляет боевых магов. Но детектив Ди предвидел, что за артефактом начнется охота, и предпринял соответствующие меры.



Видео: 1024x560 (1.85:1), 23.976 fps, AVC MPEG4 (x264), , ~1397 kbps avg, 0.102 bit/pixel
Аудио: 48 kHz, AC3 Dolby Digital, 2 (L,R) ch, ~192.00 kbps avg
General
Unique ID : 198617044133154738924710866326993705588 (0x956C4053A29EAB2584AC2258CF6F1A74)
Complete name : C:\Users\123\Desktop\Detective.Dee.The.Four.Heavenly.Kings.2018.HDRip_AVC_[tfile.ru].mkv
Format : Matroska
Format version : Version 4 / Version 2
File size : 1.47 GiB
Duration : 2h 12mn
Overall bit rate mode : Constant
Overall bit rate : 1 589 Kbps
Encoded date : UTC 2019-05-13 08:43:43
Writing application : Lavf56.36.100
Writing library : Lavf56.36.100

Video
ID : 2
Format : AVC
Format/Info : Advanced Video Codec
Format profile :
Format settings, CABAC : Yes
Format settings, ReFrames : 2 frames
Format settings, GOP : M=1, N=25
Codec ID : V_MPEG4/ISO/AVC
Duration : 2h 12mn
Bit rate mode : Constant
Bit rate : 1 397 Kbps
Width : 1 024 pixels
Height : 560 pixels
Display aspect ratio : 1.85:1
Frame rate mode : Constant
Frame rate : 23.976 fps
Color space : YUV
Chroma subsampling : 4:2:0
Bit depth : 8 bits
Scan type : Progressive
Bits/(Pixel*Frame) : 0.102
Stream size : 1.26 GiB (86%)
Language : Chinese
Default : Yes
Forced : No
DURATION : 02:12:04.333000000
NUMBER_OF_FRAMES : 189994
NUMBER_OF_BYTES : 13589096608
_STATISTICS_WRITING_APP : mkvmerge v20.0.0 (''I Am The Sun'') 64-bit
_STATISTICS_WRITING_DATE_UTC : 2019-05-13 08:43:43
_STATISTICS_TAGS : BPS DURATION NUMBER_OF_FRAMES NUMBER_OF_BYTES

Audio
ID : 1
Format : AC-3
Format/Info : Audio Coding 3
Mode extension : CM (complete main)
Format settings, Endianness : Big
Codec ID : A_AC3
Duration : 2h 12mn
Bit rate mode : Constant
Bit rate : 192 Kbps
Channel(s) : 2 channels
Channel positions : Front: L R
Sampling rate : 48.0 KHz
Bit depth : 32 bits
Compression mode : Lossy
Stream size : 181 MiB (12%)
Title : MVO HDrezka Studio
Language : Russian
Default : Yes
Forced : No
DURATION : 02:12:04.320000000
NUMBER_OF_FRAMES : 247635
NUMBER_OF_BYTES : 190183680
_STATISTICS_WRITING_APP : mkvmerge v20.0.0 (''I Am The Sun'') 64-bit
_STATISTICS_WRITING_DATE_UTC : 2019-05-13 08:43:43
_STATISTICS_TAGS : BPS DURATION NUMBER_OF_FRAMES NUMBER_OF_BYTES












   Похожие торренты   Торрент   Размер 
В этой теме нет новых непрочитанных сообщений. Детектив Ди: Четыре Небесных царя / Di Renjie zhi Sidatianwang (Харк Цуй) [2018, фэнтези, боевик, детектив, приключения, HDRip] MVO

0 | 0

1.45 ГБ

В этой теме нет новых непрочитанных сообщений. Детектив Ди: Четыре Небесных царя / Di Renjie: zhi si da tian wang (2018) BDRip-AVC | Sub

0 | 0

2.2 ГБ

В этой теме нет новых непрочитанных сообщений. Бэтмен: Готэм в газовом свете / Batman: Gotham by Gaslight (Сэм Лью) [2018, мультфильм, фэнтези, боевик, криминал, детектив, HDRip]MVO

6 | 3

1.37 ГБ

В этой теме нет новых непрочитанных сообщений. Шерлок Гномс / Sherlock Gnomes (Джон Стивенсон) [2018, мультфильм, фэнтези, комедия, детектив, приключения, семейный, HDRip] DUB

161 | 2

1.37 ГБ

В этой теме нет новых непрочитанных сообщений. Флэш, 2 сезон 1-12 серии из 23 / The Flash [NewStudio] (Дэвид Наттер, Джесси Уарн) [2015-2016, фантастика, фэнтези, боевик, детектив, приключения, WEB-DLRip-AVC, P]

45 | 81

8.51 ГБ

В этой теме нет новых непрочитанных сообщений. Флэш, 2 сезон 1-11 серии из 23 / The Flash [NewStudio] (Дэвид Наттер, Джесси Уарн) [2015-2016, фантастика, фэнтези, боевик, детектив, приключения, WEB-DLRip-AVC, P]

17 | 151

7.8 ГБ

В этой теме нет новых непрочитанных сообщений. Орудия смерти: Город костей / The Mortal Instruments: City of Bones (Харольд Цварт) [2013, фэнтези, приключения, драма, мелодрама, детектив, боевик, BDRip] DUB / Фантастика

53 | 1

2.18 ГБ




Вы не можете начинать темы
Вы не можете отвечать на сообщения
Вы не можете редактировать свои сообщения
Вы не можете удалять свои сообщения
Вы не можете добавлять вложения

Перейти:  
Для Мосгорсуда, Роскомнадзора и рекламодателей: mosgorsud-torrent[собачка]yandex.ru
Регистрация  Вход
ppkBB3cker v.2 © 2008-2014 @ PPK
[ Time : 0.017s | 17 Queries | GZIP : Off ]

cron