img image001 image001 image001 image001 image001 image001 image001 image001 image001 image001 image001 image001 image001 image001 image001 image001
Planets Sun Sun Sun
Статистика раздачи
Автор: mari | Размер: 1.46 ГБ | Добавлен: 14 май 2019
Раздают: 1    Качают: 1
Скачать торрент
Скачать торрент

СообщениеДобавлено: 14 май 2019 

Заложница / Taken


Перевод: Профессиональный (полное дублирование), субтитры: отсутствуют
Формат: HDRip-AVC, MKV, H.264, AC3
Страна: Франция
Режиссер: Пьер Морель
Жанр: боевик, триллер, драма, криминал
Продолжительность: 01:33:25
Год выпуска: 2008
В ролях: Лиам Нисон, Мэгги Грэйс, Лиленд Орсер, Джон Грайз, Дэвид Уоршофски, Холли Вэлэнс, Кэти Кэссиди, Ксандер Беркли, Оливье Рабурден, Жерар Уоткинс, Фамке Янссен

Описание: Бывший секретный агент, а ныне одинокий неудачник, Брайан вынужден уступить напору экс-жены и дать согласие на поездку семнадцатилетней дочери в Европу на каникулы. Наивную девочку, а так же её подругу похищают албанские бандиты и собираются продать в рабство арабам. Взволнованный отец тут же едет во Францию, чтобы в одиночку спасти дочь...



Видео: 1024x432 (2.40:1), 23.976 fps, AVC MPEG4 (x264), , ~1793 kbps avg, 0.169 bit/pixel
Аудио: 48 kHz, AC3 Dolby Digital, 3/2 (L,C,R,l,r) + LFE ch, ~448 kbps
General
Unique ID : 322335011912928133738207568512270385349 (0xF27F7714834F5DD5EC118BD467D6C0C5)
Complete name : C:\Users\123\Desktop\Taken.2008.720p.HDRip.x264_[tfile.ru].mkv
Format : Matroska
Format version : Version 4 / Version 2
File size : 1.46 GiB
Duration : 1h 33mn
Overall bit rate mode : Constant
Overall bit rate : 2 241 Kbps
Movie name : Taken (2008)
Encoded date : UTC 2019-05-14 14:49:28
Writing application : Lavf56.36.100
Writing library : Lavf56.36.100

Video
ID : 2
Format : AVC
Format/Info : Advanced Video Codec
Format profile :
Format settings, CABAC : Yes
Format settings, ReFrames : 2 frames
Format settings, GOP : M=1, N=25
Codec ID : V_MPEG4/ISO/AVC
Duration : 1h 33mn
Bit rate mode : Constant
Bit rate : 1 793 Kbps
Width : 1 024 pixels
Height : 432 pixels
Display aspect ratio : 2.40:1
Frame rate mode : Constant
Frame rate : 23.976 fps
Color space : YUV
Chroma subsampling : 4:2:0
Bit depth : 8 bits
Scan type : Progressive
Bits/(Pixel*Frame) : 0.169
Stream size : 1.14 GiB (78%)
Title : AVC, 1280x546, 5983 kbps
Language : English
Default : Yes
Forced : No
DURATION : 01:33:25.267000000
NUMBER_OF_FRAMES : 134392
NUMBER_OF_BYTES : 4190245252
_STATISTICS_WRITING_APP : mkvmerge v7.4.0 (''Circles'') 64bit built on Dec 12 2014 12:19:56
_STATISTICS_WRITING_DATE_UTC : 2019-05-14 14:49:28
_STATISTICS_TAGS : BPS DURATION NUMBER_OF_FRAMES NUMBER_OF_BYTES

Audio
ID : 1
Format : AC-3
Format/Info : Audio Coding 3
Mode extension : CM (complete main)
Format settings, Endianness : Big
Codec ID : A_AC3
Duration : 1h 33mn
Bit rate mode : Constant
Bit rate : 448 Kbps
Channel(s) : 6 channels
Channel positions : Front: L C R, Side: L R, LFE
Sampling rate : 48.0 KHz
Bit depth : 32 bits
Compression mode : Lossy
Stream size : 299 MiB (20%)
Default : Yes
Forced : No
DURATION : 01:33:25.664000000
NUMBER_OF_FRAMES : 175177
NUMBER_OF_BYTES : 313917184
_STATISTICS_WRITING_APP : mkvmerge v7.4.0 (''Circles'') 64bit built on Dec 12 2014 12:19:56
_STATISTICS_WRITING_DATE_UTC : 2019-05-14 14:49:28
_STATISTICS_TAGS : BPS DURATION NUMBER_OF_FRAMES NUMBER_OF_BYTES












   Похожие торренты   Торрент   Размер 
В этой теме нет новых непрочитанных сообщений. 13-й район / Banlieue 13 (Пьер Морель) [2004, фантастика, боевик, триллер, LowHDRip] DUB / Боевики /Action

2 | 0

744.32 МБ

В этой теме нет новых непрочитанных сообщений. Багровая мята / Peppermint (Пьер Морель) [2018, боевик, триллер, драма, криминал, HDRip] АVO

31 | 6

1.36 ГБ

В этой теме нет новых непрочитанных сообщений. Багровая мята / Peppermint (Пьер Морель ) [2018 , боевик, триллер, драма , HDRip] DUB

23 | 5

1.46 ГБ

В этой теме нет новых непрочитанных сообщений. Багровая мята / Перечная мята / Peppermint (Пьер Морель) [2018, боевик, триллер, драма, криминал, BDRip-AVC] AVO

11 | 2

1.93 ГБ

В этой теме нет новых непрочитанных сообщений. Двойное лицо / Het Tweede Gelaat (Ян Верхейен) [2017, драма, криминал, боевик, триллер, HDRip] MVO / Боевики /Action

31 | 2

1.45 ГБ

В этой теме нет новых непрочитанных сообщений. Преисподняя / Underverden / Darkland (Фенар Ахмад) [2017, боевик, триллер, драма, криминал, HDRip] VO / Боевики /Action

164 | 14

1.45 ГБ

В этой теме нет новых непрочитанных сообщений. Одиночка / A Man Apart (Ф. Гэри Грей) [Open Matte] [2003, боевик, триллер, драма, криминал, HDRip] MVO / Боевики /Action

6 | 0

1.46 ГБ




Вы не можете начинать темы
Вы не можете отвечать на сообщения
Вы не можете редактировать свои сообщения
Вы не можете удалять свои сообщения
Вы не можете добавлять вложения

Перейти:  
Для Мосгорсуда, Роскомнадзора и рекламодателей: mosgorsud-torrent[собачка]yandex.ru
cron
Регистрация  Вход
ppkBB3cker v.2 © 2008-2014 @ PPK
[ Time : 0.029s | 17 Queries | GZIP : Off ]

cron